IndexPortalCalendarTrợ giúpTìm kiếmThành viênNhómĐăng kýĐăng Nhập

Share | 
 

 The Dark Knight BluRay DTS 1080p (2008) x264 ESiR (IMAX)

Xem chủ đề cũ hơn Xem chủ đề mới hơn Go down 
Tác giảThông điệp
stefan^^



Tổng số bài gửi : 23
Join date : 03/04/2010
Age : 22

Bài gửiTiêu đề: The Dark Knight BluRay DTS 1080p (2008) x264 ESiR (IMAX)   Mon Apr 05, 2010 7:19 pm


Trích dẫn :
http://www.imdb.com/title/tt0468569/

Complete name : H:\MOVIES\Batman 2 – The Dark Knight BD DTS 1080p (2008).mkv
Format : Matroska
File size : 13.9 GiB
Duration : 2h 32mn
Overall bit rate : 13.1 Mbps
Movie name : The Dark Knight (2008)
Encoded date : UTC 2008-11-26 21:07:00
Writing application : mkvmerge v2.0.2 ('You're My Flame') built on Feb 21 2007 23:40:55
Writing library : libebml v0.7.7 + libmatroska v0.8.1
Cover : Yes / Yes / Yes

Video
ID : 1
Format : AVC
Format/Info : Advanced Video Codec
Format profile : High@L4.1
Format settings, CABAC : Yes
Format settings, ReFrames : 8 frames
Muxing mode : Container profile=Unknown@4.1
Codec ID : V_MPEG4/ISO/AVC
Duration : 2h 32mn
Bit rate : 11.3 Mbps
Nominal bit rate : 11.6 Mbps
Width : 1 920 pixels
Height : 1 080 pixels
Display aspect ratio : 16:9
Frame rate : 23.976 fps
Resolution : 8 bits
Colorimetry : 4:2:0
Scan type : Progressive
Bits/(Pixel*Frame) : 0.228
Stream size : 12.0 GiB (86%)
Writing library : x264 core 65 r1016M dbc5ef0
Encoding settings : cabac=1 / ref=8 / deblock=1:-3:-3 / analyse=0x3:0x133 / me=umh / subme=9 / psy_rd=0.8:0.8 / mixed_ref=1 / me_range=24 / chroma_me=1 / trellis=2 / 8x8dct=1 / cqm=2 / deadzone=21,11 / chroma_qp_offset=-2 / threads=3 / nr=0 / decimate=1 / mbaff=0 / bframes=3 / b_pyramid=1 / b_adapt=2 / b_bias=0 / direct=1 / wpredb=1 / keyint=250 / keyint_min=25 / scenecut=40(pre) / rc=2pass / bitrate=11580 / ratetol=1.0 / qcomp=0.60 / qpmin=10 / qpmax=29 / qpstep=4 / cplxblur=20.0 / qblur=0.5 / ip_ratio=1.40 / pb_ratio=1.30 / aq=1:0.65
Language : English

Audio
ID : 2
Format : DTS
Format/Info : Digital Theater Systems
Codec ID : A_DTS
Duration : 2h 32mn
Bit rate mode : Constant
Bit rate : 1 510 Kbps
Channel(s) : 6 channels
Channel positions : Front: L C R, Surround: L R, LFE
Sampling rate : 48.0 KHz
Resolution : 24 bits
Stream size : 1.61 GiB (12%)
Language : English

Text #1
ID : 3
Format : ASS
Codec ID : S_TEXT/ASS
Codec ID/Info : Advanced Sub Station Alpha
Language : English

Text #2
ID : 4
Format : ASS
Codec ID : S_TEXT/ASS
Codec ID/Info : Advanced Sub Station Alpha
Language : Danish

Text #3
ID : 5
Format : ASS
Codec ID : S_TEXT/ASS
Codec ID/Info : Advanced Sub Station Alpha
Language : Dutch

Text #4
ID : 6
Format : ASS
Codec ID : S_TEXT/ASS
Codec ID/Info : Advanced Sub Station Alpha
Language : Finnish

Text #5
ID : 7
Format : ASS
Codec ID : S_TEXT/ASS
Codec ID/Info : Advanced Sub Station Alpha
Language : French

Text #6
ID : 8
Format : ASS
Codec ID : S_TEXT/ASS
Codec ID/Info : Advanced Sub Station Alpha
Language : German

Text #7
ID : 9
Format : ASS
Codec ID : S_TEXT/ASS
Codec ID/Info : Advanced Sub Station Alpha
Language : Hungarian

Text #8
ID : 10
Format : ASS
Codec ID : S_TEXT/ASS
Codec ID/Info : Advanced Sub Station Alpha
Language : Norwegian

Text #9
ID : 11
Format : ASS
Codec ID : S_TEXT/ASS
Codec ID/Info : Advanced Sub Station Alpha
Language : Portuguese

Text #10
ID : 12
Format : ASS
Codec ID : S_TEXT/ASS
Codec ID/Info : Advanced Sub Station Alpha
Language : Romanian

Text #11
ID : 13
Format : ASS
Codec ID : S_TEXT/ASS
Codec ID/Info : Advanced Sub Station Alpha
Language : Spanish

Text #12
ID : 14
Format : ASS
Codec ID : S_TEXT/ASS
Codec ID/Info : Advanced Sub Station Alpha
Language : Swedish






http://megashare.vn/dl.php/186901
http://megashare.vn/dl.php/187172
http://megashare.vn/dl.php/216256
Trích dẫn :
Nguồn : HDVIETNAM.COM
Về Đầu Trang Go down
Xem lý lịch thành viên
nhat_map_b2



Tổng số bài gửi : 40
Join date : 02/04/2010
Age : 23

Bài gửiTiêu đề: Re: The Dark Knight BluRay DTS 1080p (2008) x264 ESiR (IMAX)   Mon Apr 05, 2010 8:01 pm

hay thật,kiếm ở đâu mậy
thanks lol! lol! lol!
Về Đầu Trang Go down
Xem lý lịch thành viên
VOLVERINE_1994
Admin


Tổng số bài gửi : 9
Join date : 02/04/2010

Bài gửiTiêu đề: Re: The Dark Knight BluRay DTS 1080p (2008) x264 ESiR (IMAX)   Thu Apr 08, 2010 11:17 am

Hic. film HD mà còn bluray nữa. Bao nhiêu GB vậy trời Shocked
Lưu ý: Đề nghị bạn nên sửa lại ảnh cho hợp với diễn đàn chứ ảnh to quá khó nhìn.
Về Đầu Trang Go down
Xem lý lịch thành viên
Sponsored content




Bài gửiTiêu đề: Re: The Dark Knight BluRay DTS 1080p (2008) x264 ESiR (IMAX)   Today at 6:50 am

Về Đầu Trang Go down
 
The Dark Knight BluRay DTS 1080p (2008) x264 ESiR (IMAX)
Xem chủ đề cũ hơn Xem chủ đề mới hơn Về Đầu Trang 
Trang 1 trong tổng số 1 trang

Permissions in this forum:Bạn không có quyền trả lời bài viết
 :: Giải trí :: Film-
Chuyển đến